<?xml version="1.0" standalone="no"?>
<!DOCTYPE svg PUBLIC "-//W3C//DTD SVG 1.1//EN" "http://www.w3.org/Graphics/SVG/1.1/DTD/svg11.dtd">
<svg xmlns="http://www.w3.org/2000/svg">
<metadata>Copyright (C) 2019 by original authors @ fontello.com</metadata>
<defs>
<font id="ltx-mirasat" horiz-adv-x="1000" >
<font-face font-family="ltx-mirasat" font-weight="400" font-stretch="normal" units-per-em="1000" ascent="850" descent="-150" />
<missing-glyph horiz-adv-x="1000" />
<glyph glyph-name="crime" unicode="&#xe800;" d="M971 654h-59v13c0 16-13 29-29 29h-792c-14 0-26-10-29-25l-2-17c-4 2-8 2-12 2h-19c-16 0-29-13-29-29s13-29 29-29h19c1 0 2 0 2 0l-18-111c-6-37 11-74 42-94l-48-296c-3-23 3-47 19-65 15-18 37-28 60-28h216c44 0 80 36 80 80v134h109c56 0 101 46 101 102v58h272c16 0 29 13 29 30v86h59c16 0 29 13 29 29v102c0 16-13 29-29 29z m-629-246v-324c0-12-10-21-21-21h-216c-8 0-13 4-16 7-2 3-6 9-5 18l51 318c3 14-6 28-20 32-17 5-28 22-25 40l1 7h755c3 0 5 0 8 1v-49h-483c-16 0-29-13-29-29z m512 229v-95c-3 1-5 1-8 1h-407l7 37c3 16-7 31-23 34-16 3-32-7-35-23l-8-48h-37l7 37c3 16-8 31-24 34-16 3-31-7-34-23l-9-48h-36l7 37c3 16-8 31-24 34-16 3-31-7-34-23l-9-48h-86l15 94h738z m-301-317c0-24-19-43-43-43h-109v56c11-17 26-30 45-39 4-2 8-3 13-3 11 0 21 6 26 17 7 15 1 32-14 39-13 6-24 18-29 31h111v-58z m388 233h-29v43h29v-43z" horiz-adv-x="1000" />

<glyph glyph-name="detective" unicode="&#xe801;" d="M753 185l58 46c7 6 11 15 11 24s-4 17-11 23l-100 75c1 3 2 6 3 9h40c48 0 88 39 88 88 0 24-10 46-26 62 36 26 45 53 45 74 0 53-54 95-152 122l-11 55c-10 50-55 87-107 87-29 0-56-11-76-32-8-8-22-8-30 0-20 21-47 32-76 32-52 0-97-37-107-87l-11-55c-98-27-152-69-152-122 0-29 16-54 45-74-16-16-26-38-26-62 0-49 40-88 88-88h40c1-3 2-6 3-9l-99-75c-8-6-12-14-12-23 0-9 4-18 11-24l58-46c-94-9-167-89-167-185v-121c0-16 13-29 29-29h391 391c16 0 29 13 29 29v121c0 96-73 176-167 185z m-419 245v25c52-10 109-15 166-15 59 0 116 5 166 15v-25c0-52-24-99-62-129 0 0 0 0-1-1-28-22-64-36-103-36-39 0-75 14-103 36-1 1-1 1-1 1-38 30-62 77-62 129z m166-358l-62 142c20-5 41-8 62-8s42 3 62 8z m245 182l-68-55c-9-7-13-19-10-30l14-55-123-56 88 201c14 12 26 26 37 41z m9 225c16 0 29-13 29-29s-13-30-29-30h-30c0 1 0 1 0 1 1 3 1 6 1 9v39c6 2 13 5 20 7 2 1 5 2 8 3h1z m-394 272c4 24 25 40 49 40 13 0 26-5 35-14 31-31 81-31 112 0 10 9 22 14 35 14 24 0 45-16 49-40l22-107c-54-19-108-28-162-28-53 0-108 9-162 28z m-82-108l-2-12c-3-14 5-28 18-33 68-27 137-41 206-41 69 0 138 14 206 41 13 5 21 19 18 33l-2 12c58-20 81-44 81-57 0-29-107-88-303-88-196 0-303 59-303 88 0 13 23 37 81 57z m-2-223h-30c-16 0-29 14-29 30s13 29 29 29h1c9-3 19-7 28-10v-39c0-3 1-6 1-9 0 0 0 0 0-1z m41-120c11-15 23-29 37-41l88-201-122 56 8 36c0 0 0 0 0 0l5 19c3 11-1 23-10 30l-68 55z m-178-300c0 69 55 126 123 127l-5-22c-3-12 2-24 11-31 2-1 3-2 5-2l198-92v-71h-332z m722-91h-332v71l198 92c13 5 20 20 16 33l-5 22c68-1 123-58 123-127z" horiz-adv-x="1000" />

<glyph glyph-name="drama" unicode="&#xe802;" d="M292 612c-3 16-19 26-35 22-16-3-26-19-23-35 3-15-7-31-22-34-15-3-31 7-34 22-3 16-19 27-35 23-16-3-27-19-23-35 9-41 45-70 86-70 6 0 12 1 18 2 48 10 78 57 68 105z m0 0m626 79l-20 3c-87 15-174 21-260 18l-13 60c-10 46-50 78-97 78-1 0-2 0-3 0l-21-1c-146-5-288-36-423-90l-19-8c-45-17-70-65-60-112l41-191c19-92 67-173 138-235 71-62 158-99 251-106 1 0 2 0 3 0 5 0 10 1 14 3 5 3 11 6 16 9 55-65 126-112 208-136 3-1 6-1 9-1 3 0 5 0 8 1 90 27 168 81 224 156 56 76 86 165 86 259v195c0 49-34 90-82 98z m-555-302c1-21 3-42 6-63l-63-14c4 34 25 64 57 77z m60 9v195c0 20 13 36 32 39l21 4c68 12 137 18 206 18s137-6 205-18l21-4c19-3 33-19 33-39v-195c0-161-106-306-259-355-153 49-259 194-259 355z m-322 63l-41 191c-4 18 6 37 24 44l20 8c128 52 264 81 402 86l21 1c0 0 1 0 1 0 19 0 35-13 39-32l11-50c-38-3-75-8-112-15l-21-3c-47-8-82-49-82-98v-142c-38-9-71-32-92-65-23-35-30-76-22-116 2-8 6-15 13-19 5-3 11-5 16-5 2 0 4 1 6 1l99 21c11-35 27-69 47-100-1-1-1-1-2-1-160 16-293 136-327 294z m0 0m394-43c16 0 29 13 29 30 0 15 13 28 29 28 16 0 29-13 29-28 0-17 13-30 30-30 16 0 29 13 29 30 0 48-39 88-88 88-48 0-88-40-88-88 0-17 13-30 30-30z m0 0m257 0c16 0 30 13 30 30 0 15 12 28 28 28 16 0 29-13 29-28 0-17 13-30 30-30 16 0 29 13 29 30 0 48-39 88-88 88-48 0-88-40-88-88 0-17 14-30 30-30z m0 0m-194-83c-17 0-30-14-30-30 0-85 69-154 154-154 84 0 153 69 153 154 0 16-13 30-29 30z m124-125c-42 0-77 28-90 65h179c-12-37-48-65-89-65z m0 0" horiz-adv-x="1000" />

<glyph glyph-name="fantasy" unicode="&#xe803;" d="M385 26h59v-59h-59z m0 0m117 0h59v-59h-59z m0 0m-125 344l58-59-41-42-59 59z m0 0m176-101l-42 42 59 59 41-42z m0 0m-172 343c-2-1-4-1-6-1-29 56-65 90-81 102-69 59-142 73-231 76l-62 2 38-49c70-93 156-113 160-305h-107v-29c0-58 23-110 61-147h-32v-29c0-93 61-172 148-198 10-104 98-186 204-186 106 0 194 82 204 186 87 26 148 105 148 198v29h-32c38 37 62 89 62 147v29h-108c3 192 90 212 160 305l38 49-62-2c-89-3-162-17-231-76-16-12-53-46-82-102-1 0-3 0-5 1l-92 238z m121 1h-57l28 74z m-368 111c46-8 85-24 122-56l1 0c12-10 38-33 61-74-27-13-52-32-71-56-6 27-15 52-25 74-23 47-53 77-88 112z m68-346c1-7 2-13 4-20l20-79c-38 21-64 57-73 99z m-19-176h62l23-91v-14c-44 19-76 58-85 105z m437-147c0-82-66-148-147-148-81 0-147 66-147 148v63l-63 254c-23 93 47 182 142 182h136c95 0 166-89 142-182l-63-254z m59 42v14l22 91h63c-10-47-42-86-85-105z m42 182l19 79c2 7 3 13 4 20h49c-9-42-35-78-72-99z m-32 389l0 0c38 32 77 48 122 56-35-36-64-66-87-112-11-22-19-47-25-73-20 24-44 42-71 55 23 41 49 64 61 74z m0 0" horiz-adv-x="1000" />

<glyph glyph-name="historical" unicode="&#xe804;" d="M910 379h-94c-22 86-88 149-169 170v61c29-6 58-17 85-33 13-7 30-4 39 8l106 142c22 30-21 50-21 50-82 49-175 74-270 73-279-3-525-228-525-539v-135c0-20 19-34 38-28 32 11 224 75 255 85v-59c0-48-40-88-88-88-16 0-30-13-29-30 1-115 95-206 209-206 94 0 142 59 142 125 0 29 24 53 53 53h9c13-67 72-118 143-118 16 0 30 13 30 30v142l71-50c19-14 46 0 46 24v294c0 16-13 29-30 29z m-673-123l-118-39v94c0 281 224 481 472 481 75 0 150-19 219-56l-71-96c-228 110-502-56-502-329v-55z m58 19v36c0 178 139 304 293 305v-59c-10 0-20-1-30-2-118-15-204-123-204-244v-16z m469-301c-34 12-59 45-59 83 0 16-13 29-29 29h-35c-62 0-111-50-111-111 0-72-81-67-81-67-76-1-138 54-151 123 65 15 114 73 114 143 0 41 0 97 0 137 0 94 68 175 153 186 85 10 163-40 190-118h-205c-32 0-79-35-79-88 0-48 39-88 88-88 22 0 43 9 58 23l147-103z m-176 317c0-16-13-29-29-29-16 0-29 13-29 29s13 30 29 30 29-14 29-30z m293-179c-6 4-213 150-235 166 0 4 1 9 1 13 0 11-2 20-5 30h239z" horiz-adv-x="1000" />

<glyph glyph-name="horror" unicode="&#xe805;" d="M854 557c-1 0-31-3-36 25-26 153-159 268-318 268-159 0-292-115-318-268-5-29-35-25-35-25-81 0-147-66-147-146v-176c0-49 39-88 88-88h90v-151c0-48 39-87 88-87h93c12-35 44-59 82-59h118c38 0 70 24 82 59h93c49 0 88 39 88 87v151h90c49 0 88 39 88 88v176c0 80-66 146-146 146z m87-322c0-16-13-29-29-29h-90v87c0 16 13 28 30 28 16 0 29 13 29 29s-13 29-29 29c-50 0-88-37-88-86v-297c0-16-13-29-30-29h-87v88c0 16-14 29-30 29s-29-13-29-29v-117c0-16-13-29-29-29-15 0-103 0-118 0-16 0-29 13-29 29v117c0 16-13 29-29 29s-29-13-29-29v-88h-88c-16 0-30 13-30 29v297c0 49-38 86-88 86-16 0-29-13-29-29s13-29 29-29c17 0 30-12 30-28v-87h-90c-16 0-29 13-29 29v176c0 48 39 87 88 87h6c43 0 80 31 87 74 21 127 131 219 260 219s239-92 260-219c7-43 44-74 87-74h7c48 0 87-39 87-87z m-382 205h-118c-48 0-87-40-87-88s39-88 87-88h118c48 0 88 40 88 88s-40 88-88 88z m0-117h-118c-16 0-29 13-29 29s13 29 29 29h118c16 0 29-13 29-29s-13-29-29-29z m-88 263c0 49-40 88-88 88s-88-39-88-88 39-88 88-88 88 40 88 88z m-117 0c0 17 13 30 29 30s29-13 29-30-13-29-29-29-29 13-29 29z m263 88c-48 0-88-39-88-88s40-88 88-88 88 40 88 88-39 88-88 88z m0-117c-16 0-29 13-29 29s13 30 29 30 30-13 30-30-14-29-30-29z" horiz-adv-x="1000" />

<glyph glyph-name="western" unicode="&#xe806;" d="M1000 55v113c0 16-13 29-29 29h-135c-2 0-4 0-7 0-93 2-178 48-227 123-47 72-56 158-23 237l56 135c6 14 0 30-14 37-45 23-115 40-200 47v45c0 16-13 29-29 29h-179c-16 0-29-13-29-29v-48c-54-7-120-19-168-44-11-5-17-17-16-29l61-583c0 0 0 0 0 0l12-116c0 0 0 0 0 0l0-1c0 0 0 0 0-1 0 0 0-1 0-2 0 0 1 0 1-1 0 0 0-1 0-1 1-2 1-4 2-6 0 0 0 0 0 0l66-123c5-10 15-16 26-16h135c16 0 29 13 29 29v91c47-9 115-37 163-68 49-33 108-50 166-50 5 0 11 0 16 1 218 12 305 61 308 63 10 5 15 15 15 25v113c0 1 0 1 0 1z m-430 633l-45-108c-21-50-28-101-22-153 5-49 22-97 50-139 60-92 163-147 275-149 3 0 6 0 8 0h105v-62c-70-21-168-43-267-49-51-2-103 12-147 40-59 39-138 70-195 79v244l77 55c7 5 12 14 12 23v248c60-5 111-16 149-29z m-208 103v-306l-59-43-60 43v261c0 0 0 0 0 0v45h119z m-178-77v-245c0-9 5-18 12-23l77-55v-241h-157l-55 535c31 12 73 22 123 29z m1-805l-34 65h122v-65z m707 34c-42-11-113-26-218-32-51-3-103 11-147 40-70 45-168 81-224 81h-174l-7 59h181c44 0 132-33 192-72 49-32 108-50 166-50 5 0 11 0 16 1 97 5 192 26 264 46v-56c-10-5-26-11-49-17z" horiz-adv-x="1000" />

<glyph glyph-name="adventures" unicode="&#xe807;" d="M500 850c-261 0-473-212-473-473v-45c0-23 19-42 42-42 2 0 3 1 5 1l404-431c5-7 14-10 22-10s17 3 22 10l405 431c1 0 3-1 6-1 22 0 40 19 40 41v46c0 261-212 473-473 473z m-171-555l98-291-307 328c21 24 52 39 86 39 39 0 75-20 96-53 7-10 16-18 27-23z m62 9c6 4 10 8 14 14 21 33 57 53 96 53 39 0 75-20 97-53 3-6 8-10 13-15l-111-326-109 327z m282-9c11 5 21 13 27 23 21 33 58 53 97 53 32 0 63-14 85-38l-307-328 98 290z m-173 494c223 0 405-178 411-399-31 27-72 42-114 42-60 0-115-30-148-80-33 50-88 80-148 80-60 0-115-30-148-80-32 50-87 80-147 80-44 0-85-16-117-44 5 222 188 401 411 401z" horiz-adv-x="1000" />

<glyph glyph-name="cartoon" unicode="&#xe808;" d="M960 583c-39 84-104 138-180 152-59 10-119-4-175-42-40-27-76-65-105-112-29 47-65 85-105 112-56 38-116 52-175 42-76-14-140-68-180-152-38-81-50-182-32-283 18-101 63-191 127-254 56-55 120-84 184-84 13 0 25 1 38 3 55 10 105 42 143 91 38-49 88-81 143-91 13-2 25-3 38-3 64 0 128 29 184 84 64 63 109 153 127 254 18 101 6 202-32 283z m-613-564c-58-11-120 13-173 66-56 55-96 135-112 225-16 90-6 179 27 250 32 68 82 111 141 121 89 16 182-45 240-156-18-40-31-81-39-125-18-106-5-212 38-294-32-48-74-79-122-87z m591 291c-16-90-56-170-112-225-53-53-115-77-173-66-52 9-98 44-129 99-42 73-57 172-39 272 8 44 21 85 40 123 57 119 154 185 245 168 59-10 109-53 141-121 33-71 43-160 27-250z m-625-2c-67 0-121-55-121-122 0-37 17-71 44-93-1 2 0 5 0 8 5 15 26 21 49 14s37-23 32-38c-1-5-5-9-10-12 2 0 4 0 6 0 67 0 122 54 122 121 0 67-55 122-122 122z m73-69c-4-14-26-21-48-14-23 7-37 24-33 38s26 21 48 14c23-6 37-23 33-38z m265 69c-67 0-122-55-122-122 0-67 55-121 122-121 2 0 4 0 6 0-5 3-9 7-10 12-5 15 10 32 32 38 23 7 44 1 49-14 1-3 1-6 0-8 27 22 44 56 44 93 0 67-54 122-121 122z m-25-83c-22-7-44 0-48 14-4 15 10 32 33 38 22 7 44 1 48-14 4-14-10-31-33-38z" horiz-adv-x="1000" />

<glyph glyph-name="comedy" unicode="&#xe809;" d="M908 518c-27 0-52-13-68-33-40 10-80 12-120 6-26-5-51-12-75-23 0 0 0 1 0 1 0 98-45 183-80 236 13 15 21 35 21 57 0 49-39 88-88 88s-88-39-88-88c0-22 8-42 22-57-36-53-80-138-80-236 0 0 0-1 0-1-24 11-50 18-76 23-40 6-80 4-120-6-16 20-40 33-68 33-49 0-88-39-88-88s39-88 88-88c25 0 48 11 64 28 48-33 78-86 82-145h-29c-16 0-29-13-29-29s13-30 29-30h29v-35h-9c-49 0-88-39-88-88s39-88 88-88h62c48-64 125-105 211-105s163 41 211 105h63c48 0 87 40 87 88s-39 88-87 88h-10v35h29c16 0 29 14 29 30s-13 29-29 29h-29c4 59 34 112 82 145 16-17 39-28 64-28 49 0 88 40 88 88s-39 88-88 88z m-410 273c16 0 29-13 29-29s-13-29-29-29-29 13-29 29 13 29 29 29z m-15-115c5-1 10-2 15-2s11 1 16 2c31-46 72-122 72-207 0-12 0-25-1-37-38-29-67-65-87-106-20 41-49 77-87 106 0 12-1 25-1 37 0 85 41 161 73 207z m-395-275c-16 0-29 13-29 29s13 29 29 29 29-13 29-29-13-29-29-29z m88 24c0 2 0 3 0 5 67 15 136 2 193-39 55-40 90-99 98-166h-174c-5 82-48 156-117 200z m49-411c-16 0-30 13-30 29s14 30 30 30h13c3-21 8-40 16-59z m273-105c-113 0-205 92-205 205v52h410v-52c0-113-92-205-205-205z m303 134c0-16-13-29-29-29h-30c8 19 13 38 17 59h13c16 0 29-13 29-30z m-97 182h-175c8 67 43 126 98 166 57 41 127 54 193 39 0-2 0-3 1-5-69-44-113-118-117-200z m204 176c-16 0-29 13-29 29s13 29 29 29 30-13 30-29-14-29-30-29z m0 0m-480-322c0-17-13-30-30-30s-29 13-29 30 13 29 29 29 30-13 30-29z m0 0m199 0c0-17-13-30-29-30s-30 13-30 30 14 29 30 29 29-13 29-29z m0 0" horiz-adv-x="1000" />

<glyph glyph-name="speedometer" unicode="&#xe80a;" d="M200 40c1 0 1 0 1-1 2 0 4-1 7-1 4 0 9 2 12 6l45 44c5 4 7 10 5 16-1 6-6 11-11 12-6 2-13 0-17-4l-34-33c-40 43-70 95-88 151l46 13c9 3 14 12 12 20-3 9-12 14-21 12l-45-13c-13 57-13 117 0 174l46-12c2 0 3 0 4 0 9 0 16 6 17 15 1 8-4 16-12 18l-46 11c17 56 47 107 87 150l32-33c7-7 17-7 24-1 6 7 7 17 0 24l-33 34c43 40 95 70 151 87l11-45c2-8 9-13 16-13 2 0 3 0 4 0 9 3 15 12 12 21l-11 46c57 13 117 13 174 0l-13-45c-2-6 0-12 4-16 4-5 10-6 16-5 6 1 10 6 12 12l13 45c56-17 108-47 151-87l-34-32c-4-4-6-11-5-17 1-5 6-10 12-12 6-1 12 0 16 5l34 33c40-43 70-95 88-151l-46-13c-6-2-10-6-12-12-1-6 0-12 5-16s10-6 16-4l45 13c13-58 13-117 0-175l-46 12c-9 2-18-3-20-12-2-9 3-18 12-20l45-12c-17-55-47-107-86-150l-33 34c-4 4-10 6-16 5-6-2-10-6-12-12-2-6 0-12 4-16l45-47c5-5 13-6 19-3 0 0 0 0 1 0 1 1 3 2 4 3 0 0 0 1 0 1 1 0 1 0 1 0 53 53 91 120 110 192 1 1 1 1 1 1 0 1 0 1 0 1 19 73 19 150 0 223v0c-20 73-58 139-111 192 0 1-1 1-1 1 0 1-1 1-1 1-53 53-119 91-192 111 0 0 0 0-1 0 0 0-1 0-1 0-149 40-307-2-415-111-1 0-1 0-1 0-1-1-1-1-1-1-53-54-91-120-111-193 0 0 0 0 0-1 0 0 0 0 0-1-40-148 3-307 112-416 1-1 3-2 4-3z m0 0m317 560v33c0 9-8 17-17 17-9 0-16-8-16-17v-33c0-9 7-17 16-17 9 0 17 8 17 17z m0 0m-256-386l-29-16c-5-3-8-9-8-15 0-6 3-11 8-14 5-3 12-3 17 0l29 16c5 3 8 9 8 15 0 6-3 11-8 14-6 3-12 3-17 0z m0 0m499-48c8 0 14 6 16 13 2 7-1 15-8 19l-29 16c-8 5-18 2-22-6-5-8-2-18 6-23l29-16c2-2 5-3 8-3z m0 0m-482 315l-29 17c-8 4-18 1-23-7-5-8-2-18 6-22l29-17c5-3 11-3 17 0 5 3 8 8 8 14 0 6-3 12-8 15z m0 0m87 120c-3 5-9 9-15 9-6 0-11-3-14-9-3-5-3-11 0-16l16-29c5-8 15-11 23-6 8 4 11 14 6 22z m0 0m452-268c0 9-8 17-17 17h-33c-9 0-17-8-17-17 0-9 8-17 17-17h33c9 0 17 8 17 17z m0 0m-634 0c0-9 8-17 17-17h34c9 0 16 8 16 17 0 9-7 17-16 17h-34c-9 0-17-8-17-17z m0 0m451 214c5 0 11 4 14 9l17 29c3 5 3 11 0 16-3 6-9 9-15 9-6 0-11-4-14-9l-17-29c-3-5-3-11 0-16 3-5 9-9 15-9z m0 0m-203 27c2 0 3 0 4 1 5 1 8 4 11 7 2 4 2 9 1 13l-8 32c-2 6-6 10-12 12-6 2-12 0-16-4-4-5-6-11-5-16l9-33c2-7 9-12 16-12z m0 0m331-294c-6 2-12 0-16-4s-6-10-4-16c1-6 6-10 11-12l33-9c1 0 3 0 4 0 8 0 15 6 16 14 2 9-4 16-12 19z m0 0m-524 106c2 0 3-1 5-1 8 1 15 7 16 15 1 8-4 16-12 18l-32 9c-9 2-18-3-21-12-2-9 3-18 12-20z m0 0m463 124l23 23c4 5 6 11 5 17-2 6-6 10-12 12s-12-1-16-5l-24-24c-7-6-7-17 0-23 6-7 17-7 24 0z m0 0m-401 47c-4 4-11 6-16 5-6-2-11-6-12-12-2-6 0-12 4-17l24-23c6-7 17-7 23 0 7 6 7 17 0 23z m0 0m486-130l-33-9c-8-2-13-10-12-18 1-8 8-14 17-15 1 0 3 1 4 1l32 9c9 2 14 11 12 20-2 9-11 14-20 12z m0 0m-576-188c2 0 3 0 5 0l32 9c9 2 14 12 12 20-3 9-12 15-21 12l-32-8c-8-3-13-10-12-19 1-8 8-14 16-14z m0 0m359 335c8 0 14 5 16 12l9 33c1 5 0 11-4 16-5 4-11 6-16 4-6-2-11-6-12-12l-9-32c-1-4 0-9 2-13 2-3 6-6 10-7 1-1 3-1 4-1z m0 0m-6-294l205 180c9 8 12 21 6 31-6 10-19 15-30 11l-258-87c-8-1-16-4-24-8l0 0c-2-1-4-2-5-3-32-19-47-57-37-93 10-36 43-61 80-61 14 0 27 3 39 10 1 0 3 1 5 2 7 5 14 11 19 18z m20 61c-2 24-15 46-35 60l167 56z m-133-8c0 18 10 34 25 43l19 7c2 0 4 0 6 0 28 0 50-22 50-50 0-11-3-21-10-30l-15-13c-8-4-16-7-25-7-27 0-50 23-50 50z m0 0m67 0c0-9-8-17-17-17-9 0-16 8-16 17 0 9 7 17 16 17 9 0 17-8 17-17z m0 0m-343-363c1 0 2 0 3-1 0 0 2-1 3-1 1-1 2-1 3-1 1 0 2-1 2-1h630c2 0 4 1 6 2 1 0 1 0 2 1 1 0 2 1 3 1 15 13 29 27 42 41 1 2 3 3 4 4 5 5 9 11 13 16 0 0 1 0 1 1 5 6 10 12 15 18 4 7 9 13 13 20 1 0 1 0 1 1 4 6 8 11 11 17 0 0 1 2 1 2l2 2c3 6 7 13 11 19 8 14 15 29 21 44 3 7 6 15 9 23 3 7 5 15 8 23 2 7 4 14 6 22 0 1 1 2 1 2 2 8 3 16 5 24 2 8 3 16 4 25 2 8 3 16 4 25 0 8 1 17 1 25 1 8 1 17 1 26 0 17-1 33-2 50-23 224-192 405-413 443-222 38-442-77-537-280-96-204-44-446 126-593z m326 846c240 1 441-181 464-420 2-15 3-31 3-46 0-8 0-16-1-25 0-7-1-15-2-23 0-8-1-16-2-23-2-8-3-16-5-23-1-8-3-15-4-22-1-1-1-2-1-3-2-7-4-13-6-20-2-7-5-14-8-22-2-7-5-14-8-21-6-14-12-27-19-41-4-6-7-12-10-17l-2-3-1-1c-3-6-7-11-10-17l-1-1c-4-6-8-12-13-17-4-6-9-12-13-17 0 0-1-1-1-2-4-4-8-9-13-14-1-1-2-2-3-4-11-12-23-23-36-34h-616c-146 128-197 333-128 515 68 181 242 302 436 301z m0 0" horiz-adv-x="1000" />

<glyph glyph-name="support" unicode="&#xe80b;" d="M333 850c-138 0-250-112-250-250v-183c0-65 53-117 117-117h17v33h-17c-46 0-83 38-83 84v183c0 120 97 217 216 217s217-97 217-217v-183c0-46-37-84-83-84h-17v-33h17c64 0 116 52 116 117v183c0 138-112 250-250 250z m-196-785l13 19-29 18-12-20c-37-58-34-133 7-188v-44h33v50c0 4-1 7-3 10-36 45-39 107-9 155z m780 785h-217c-46 0-83-37-83-83v-167c0-46 37-83 83-83h33v-67c0-7 4-13 11-15 2-1 4-2 6-2 4 0 9 2 12 5l78 79h77c46 0 83 37 83 83v167c0 46-37 83-83 83z m50-250c0-28-23-50-50-50h-84c-4 0-8-2-11-5l-55-55v43c0 10-8 17-17 17h-50c-28 0-50 22-50 50v167c0 27 22 50 50 50h217c27 0 50-23 50-50v-167z m-409-518l-13 20-28-18 12-19c31-48 27-110-8-155-2-3-4-6-4-10v-50h34v44c41 55 43 130 7 188z m425 201h-150c-62 0-114-49-116-112l-50-90v69c0 64-53 117-117 117h-61l0 0-1 0h-38c-18 0-33 15-33 33v39c51 30 83 85 83 144v134c0 27-7 55-20 79-4 8-14 11-22 7l-282-133c-6-3-9-8-9-15v-72c0-59 32-114 83-144v-39c0-18-15-33-33-33h-100c-65 0-117-53-117-117v-300h33v300c0 46 38 83 84 83h53l150-209c3-5 8-7 13-7h0c6 0 11 2 14 6l158 210h45c46 0 83-37 83-83v-133c0-9 8-17 17-17 6 0 12 3 15 9l78 141h96l-163-300h38l163 300h6c65 0 117 52 117 117 0 9-7 16-17 16z m-783 200v62l257 121c7-16 10-33 10-49v-134c0-73-60-133-134-133-73 0-133 60-133 133z m134-421l-52 71h106l-54-71z m79 105h-155l-47 66h6c37 0 66 30 66 67v24c33-10 68-10 100 0v-24c0-37 30-67 67-67h13l-50-66z m470 16h-131c8 39 42 67 81 67h132c-8-39-42-67-82-67z" horiz-adv-x="1000" />

<glyph glyph-name="television" unicode="&#xe80c;" d="M922 538h-314c-2 18-10 35-20 49l236 236c6 6 6 16 0 22s-16 6-22 0l-237-236c-18 14-40 22-65 22s-47-8-65-22l-236 237c-6 6-16 6-22 0s-6-16 0-23l236-235c-11-15-18-32-21-50h-314c-43 0-78-35-78-78v-532c0-43 35-78 78-78h844c43 0 78 35 78 78v531c0 44-35 79-78 79z m-422 62c38 0 69-27 77-62h-154c8 35 39 62 77 62l0 0z m469-672c0-26-21-47-47-47h-844c-26 0-47 21-47 47v531c0 26 21 47 47 47h844c26 0 47-21 47-47v-531z m-266 547h-594c-25 0-46-21-46-47v-469c0-25 21-47 46-47h594c26 0 47 22 47 47v469c0 26-21 47-47 47z m16-516c0-8-7-15-16-15h-594c-8 0-15 7-15 15v469c0 9 7 16 15 16h594c9 0 16-7 16-16v-469z m-31 469h-563c-9 0-16-7-16-15v-438c0-9 7-16 16-16h563c8 0 15 7 15 16v438c0 8-7 15-15 15z m-16-437h-531v406h531v-406z m187 484c-21 0-40-9-55-23 0 0 0 0 0 0s0 0 0 0c-14-14-23-34-23-55 0-43 35-78 78-78 22 0 41 9 56 22 0 0 0 0 0 1s0 0 0 0c14 14 23 33 23 55 0 43-35 78-79 78l0 0z m47-78c0-7-1-14-4-20l-63 62c6 3 13 5 20 5 26 0 47-21 47-47z m-93 0c0 7 1 14 4 20l63-62c-7-3-13-5-21-5-25 0-46 21-46 47z m46-109c-43 0-78-35-78-79s35-78 78-78 79 35 79 78-35 79-79 79z m-46-79c0 21 13 38 31 44v-88c-18 7-31 24-31 44l0 0z m62-44v88c18-6 31-23 31-44s-13-37-31-44z m-31-81c0 9-7 16-15 16h0c-9 0-16-7-16-16s7-15 16-15c8 0 15 7 15 15z m63 0c0 9-7 16-16 16h0c-9 0-16-7-16-16s7-15 16-15c9 0 16 7 16 15z m15-46h-125c-9 0-16-7-16-16s7-16 16-16h125c9 0 16 7 16 16s-7 16-16 16z m0-47h-125c-9 0-16-7-16-16s7-16 16-16h125c9 0 16 7 16 16s-7 16-16 16z m0-47h-125c-9 0-16-7-16-16s7-16 16-16h125c9 0 16 7 16 16s-7 16-16 16z" horiz-adv-x="1000" />

<glyph glyph-name="wifi" unicode="&#xe80d;" d="M922 303h-136l80 308c7 26-9 52-34 59-26 7-51-8-59-33l-97-334h-352l-97 334c-7 25-34 40-60 33-25-8-40-34-33-59l80-308h-136c-26 0-47-21-47-47v-93c0-61 49-110 110-110h47c0-34 27-62 62-62 35 0 63 28 63 62h375c0-34 27-62 62-62s63 28 63 62h46c61 0 110 49 110 110v93c0 26-21 47-47 47z m-119 325c3 9 12 14 21 12 9-3 14-12 12-21l-82-316h-46l95 325z m-639-9c-2 9 3 18 12 21 9 2 18-3 21-12l95-325h-46l-82 316z m86-597c-17 0-31 14-31 31h62c0-17-14-31-31-31z m-109 62c-43 0-78 35-78 79v93c0 9 7 16 15 16h563v-188h-500z m609-62c-17 0-31 14-31 31h62c0-17-14-31-31-31z m188 141c0-44-35-79-79-79h-187v188h250c9 0 16-7 16-16v-93z m-750 62h-32c-17 0-31-14-31-31v-31c0-18 14-32 31-32h32c17 0 31 14 31 32v31c0 17-14 31-31 31z m0-62h-32v31h32v-31z m656 0h31v-32h-31v32z m-63 0h32v-32h-32v32z m-62 0h31v-32h-31v32z m125 62h31v-31h-31v31z m-63 0h32v-31h-32v31z m-62 0h31v-31h-31v31z m-142 296c-42 43-112 43-154 0 0 0 0 0 0 0l22-22c30 31 80 31 110 0 0 0 0 0 0 0l22 22z m56 55c-74 73-192 73-266 0l23-22c61 61 159 61 220 0l23 22z m55 56c-104 103-272 103-376 0 0 0 0 0 0 0l22-22c92 91 240 91 332 0 0 0 0 0 0 0l22 22z m-235-204c0-26 21-47 47-47 26 0 47 21 47 47s-21 47-47 47c-26 0-47-21-47-47z m63 0c0-8-7-15-16-15s-16 7-16 15 7 16 16 16c9 0 16-7 16-16z" horiz-adv-x="1000" />

<glyph glyph-name="4k" unicode="&#xe80e;" d="M983 700h-966c-9 0-17-7-17-17v-666c0-9 8-17 17-17h966c10 0 17 8 17 17v666c0 10-7 17-17 17z m-16-667h-934v634h934v-634z m-900 517c0-9 7-17 16-17h834c9 0 16 8 16 17s-7 17-16 17h-834c-9 0-16-8-16-17z m0-400c0-9 7-17 16-17h834c9 0 16 8 16 17s-7 17-16 17h-834c-9 0-16-8-16-17z m366 350c-5 0-11-3-14-8l-133-217c-5-7-3-18 5-22 3-2 6-3 9-3h117v-33c0-9 7-17 16-17s17 8 17 17v33h33c10 0 17 8 17 17s-7 16-17 16v0h-33v200c0 10-7 17-17 17z m-16-217h-87l87 141v-141z m116 217c-9 0-16-7-16-17v-266c0-9 7-17 16-17s17 8 17 17v106l104-117c6-7 17-8 24-2 7 6 7 17 1 24h0l-122 137 115 100c7 6 8 17 2 24-6 7-17 7-24 1l-100-87v80c0 10-7 17-17 17z" horiz-adv-x="1000" />

<glyph glyph-name="money" unicode="&#xe80f;" d="M212 311c8 0 15 7 15 15v10c0 23-18 43-41 45v16c0 8-7 15-15 15-8 0-14-7-14-15v-17c-24-4-41-25-41-49 0-28 22-50 50-50h10c12 0 21-10 21-21s-9-21-21-21h-15c-9 0-16 7-16 16 0 8-6 14-14 14-9 0-15-6-15-14 0-24 18-43 41-45v-17c0-8 6-14 14-14 8 0 15 6 15 14v17c23 5 41 25 41 50 0 27-23 50-51 50h-10c-11 0-21 9-21 21s10 21 21 21h15c9 0 16-7 16-16v-10c0-8 7-15 15-15z m329 376c8 0 14 6 14 15v10c0 23-17 42-40 45v16c0 8-7 14-15 14-8 0-15-6-15-14v-17c-23-5-40-25-40-49 0-28 22-51 50-51h10c12 0 21-9 21-21s-9-21-21-21h-15c-9 0-16 8-16 16 0 8-7 15-15 15s-14-7-14-15c0-23 18-42 40-45v-16c0-8 7-14 15-14 8 0 15 6 15 14v17c23 5 40 25 40 49 0 28-22 51-50 51h-10c-12 0-21 9-21 21s9 21 21 21h15c9 0 16-8 16-16v-10c0-9 7-15 15-15z m288-127c-43 0-81-15-111-41l-73 61c17 26 26 57 26 91 0 94-77 171-171 171s-171-77-171-171c0-50 21-94 55-126l-120-106c-27 17-59 27-93 27-94 0-171-76-171-171s77-171 171-171c95 0 172 77 172 171 0 50-22 94-55 126l119 106c27-17 59-27 93-27 50 0 96 22 127 56l70-58c-25-29-39-67-39-109 0-94 76-171 171-171 94 0 171 77 171 171s-77 171-171 171z m-516-265c0-78-63-142-142-142s-142 64-142 142c0 78 64 142 142 142 79 0 142-64 142-142z m187 234c-78 0-142 64-142 142s64 142 142 142 142-64 142-142-64-142-142-142z m329-282c-78 0-142 64-142 142 0 37 14 71 37 96 3 1 5 2 7 4 1 2 1 3 2 5 25 23 59 37 96 37 78 0 142-64 142-142 0-78-64-142-142-142z m41 158c8 0 14 7 14 15v10c0 23-18 43-41 45v16c0 8-6 15-14 15-8 0-15-7-15-15v-17c-23-4-41-25-41-49 0-28 23-50 51-50h10c11 0 21-10 21-21 0-12-10-21-21-21h-15c-9 0-16 7-16 15 0 9-7 15-15 15-8 0-15-6-15-15 0-23 18-42 41-44v-17c0-8 7-14 15-14 8 0 14 6 14 14v17c24 5 41 25 41 50 0 27-22 50-50 50h-10c-12 0-21 9-21 21s9 21 21 21h15c9 0 16-7 16-16v-10c0-8 6-15 15-15z m-558-330h-125c-8 0-15-6-15-15v-188c0-8 7-14 15-14h125c8 0 15 6 15 14v188c0 9-7 15-15 15z m-14-188h-96v159h96v-159z m625 188h-125c-9 0-15-6-15-15v-188c0-8 6-14 15-14h125c8 0 14 6 14 14v188c0 9-6 15-14 15z m-15-188h-96v159h96v-159z m-392 126c8 0 14 7 14 15v220c0 8-6 15-14 15h-126c-8 0-14-7-14-15v-376c0-8 6-14 14-14h126c8 0 14 6 14 14v88c0 8-6 14-14 14-8 0-15-6-15-14v-73h-96v347h96v-206c0-8 7-15 15-15z m203 156h-125c-8 0-15-7-15-15v-282c0-8 7-14 15-14h125c8 0 15 6 15 14v282c0 8-7 15-15 15z m-14-282h-96v253h96v-253z" horiz-adv-x="1000" />

<glyph glyph-name="wifi-router" unicode="&#xe810;" d="M578 506h-484c-43 0-78-35-78-78v-484c0-43 35-78 78-78h484c43 0 78 35 78 78v484c0 43-35 78-78 78z m47-562c0-26-21-47-47-47l0 0h-484c-26 0-47 21-47 47l0 0v484c0 26 21 47 47 47h484c26 0 47-21 47-47v-484z m-125 687h-3c-8 0-16-7-16-15s8-16 16-16h3c138 0 250-112 250-250 0-9 7-16 15-16s16 7 16 16c0 155-126 281-281 281z m0 110c-9 0-16-7-16-16s7-16 16-16c198 0 359-161 359-359 0-9 7-16 16-16s16 7 16 16c-1 216-175 390-391 391z m0 93c-9 0-16-7-16-15s7-16 16-16c250 0 453-203 453-453 0-9 7-16 16-16s15 7 15 16c0 267-217 484-484 484z m-266-890h-140c-9 0-16-7-16-16s7-16 16-16h140c9 0 16 7 16 16s-7 16-16 16z m63 0h-16c-8 0-15-7-15-16s7-16 15-16h16c9 0 16 7 16 16s-7 16-16 16z m-125 172h94c8 0 15 7 15 15v94c0 9-7 16-15 16s-16-7-16-16v-78h-16v31c0 9-7 16-15 16s-16-7-16-16v-31h-15v78c0 9-7 16-16 16s-16-7-16-16v-94c0-8 7-15 16-15z m250 125h-63c-8 0-15-7-15-16v-94c0-8 7-15 15-15s16 7 16 15v32h31c9 0 16 7 16 15s-7 16-16 16h-31v15h47c9 0 16 7 16 16s-7 16-16 16z m-109 0c-9 0-16-7-16-16v-94c0-8 7-15 16-15s15 7 15 15v94c0 9-7 16-15 16z m156 0c-9 0-16-7-16-16v-94c0-8 7-15 16-15s15 7 15 15v94c0 9-7 16-15 16z" horiz-adv-x="1000" />

<glyph glyph-name="phone" unicode="&#xe811;" d="M454 772c8 0 15 7 15 16s-7 15-15 15h-1c-8 0-15-7-15-15s7-16 16-16z m46 0h47c9 0 16 7 16 16s-7 15-16 15h-47c-9 0-16-7-16-15s7-16 16-16z m188 78c0 0 0 0 0 0h-375c-52 0-94-42-94-94v-797c0-60 49-109 109-109h344c60 0 109 49 109 109v797c0 52-42 94-93 94z m-375-31h374c0 0 0 0 1 0 34 0 62-28 62-63h-500v0c0 35 28 63 63 63l0 0z m359-875h-172-172c-43 0-78 35-78 78v16h250 250v-16c0-43-35-78-78-78z m-422 781h500v-656h-500v656z m422-844h-344c-38 0-69 27-76 63 19-19 46-32 76-32h344c30 0 57 13 76 32-7-36-38-63-76-63z m-125 110c0 25-21 47-47 47s-47-22-47-47 21-47 47-47 47 21 47 47z m-47-16c-9 0-16 7-16 16s7 15 16 15c9 0 16-7 16-15s-7-16-16-16z m-156 563c-35 0-63-29-63-63s28-62 63-62 62 28 62 62-28 63-62 63z m0-94c-17 0-31 14-31 31s14 31 31 31 31-14 31-31-14-31-31-31z m156 94c-34 0-62-29-62-63s28-62 62-62 63 28 63 62-28 63-63 63z m0-94c-17 0-31 14-31 31s14 31 31 31 31-14 31-31-14-31-31-31z m156-31c35 0 63 28 63 62s-28 63-63 63-62-29-62-63 28-62 62-62z m0 93c17 0 32-14 32-31s-15-31-32-31-31 14-31 31 14 31 31 31z m-312-125c-35 0-63-28-63-62s28-63 63-63 62 28 62 63-28 62-62 62l0 0z m0-93c-17 0-31 14-31 31s14 31 31 31 31-14 31-31-14-31-31-31z m312 93c-34 0-62-28-62-62s28-63 62-63 63 28 63 63-28 62-63 62l0 0z m0-93c-17 0-31 14-31 31s14 31 31 31 32-14 32-31-14-31-32-31z m-156 93c-34 0-62-28-62-62s28-63 62-63 63 28 63 63-28 62-63 62l0 0z m0-93c-17 0-31 14-31 31s14 31 31 31 31-14 31-31-14-31-31-31z m-156-63c-35 0-63-28-63-62 0-35 28-63 63-63s62 28 62 63c0 34-28 62-62 62z m0-94c-17 0-31 14-31 32s14 31 31 31 31-14 31-31-14-32-31-32z m156 94c-34 0-62-28-62-62 0-35 28-63 62-63s63 28 63 63c0 34-28 62-63 62z m0-94c-17 0-31 14-31 32s14 31 31 31 31-14 31-31-14-32-31-32z m156 94c-34 0-62-28-62-62 0-35 28-63 62-63s63 28 63 63c0 34-28 62-63 62z m0-94c-17 0-31 14-31 32s14 31 31 31 32-14 32-31-14-32-32-32z m-339 474c3-3 7-5 11-5s8 2 11 5l5 4 4-4c4-4 8-5 12-5s8 2 11 5c6 6 6 16 0 22l-5 4 5 5c6 6 6 16 0 22s-16 6-23 0l-4-5-4 5c-7 6-17 6-23 0s-6-16 0-22l5-5-5-4c-6-6-6-16 0-22l0 0z m132 22l-5 4 4 5c7 6 7 16 0 22s-16 6-22 0l-4-5-5 5c-6 6-16 6-22 0s-6-16 0-22l5-5-5-4c-6-6-6-16 0-22 3-3 7-5 11-5s9 2 12 5l4 4 5-4c3-4 7-5 11-5s8 2 11 5c6 6 6 16 0 22l0 0z m24-22c3-3 7-5 11-5s8 2 12 5l4 4 5-4c3-4 7-5 11-5s8 2 11 5c6 6 6 16 0 22l-5 4 5 5c6 6 6 16 0 22s-16 6-22 0l-5-5-4 5c-6 6-16 6-22 0s-6-16 0-22l4-5-4-4c-7-6-7-16-1-22l0 0z m132 22l-5 4 5 5c6 6 6 16 0 22s-16 6-22 0l-5-5-4 5c-6 6-16 6-22 0s-6-16 0-22l4-5-4-4c-6-6-6-16 0-22 3-3 7-5 11-5s8 2 11 5l4 4 5-4c3-4 7-5 11-5s8 2 11 5c6 6 6 16 0 22z m25-22c3-3 7-5 11-5s8 2 11 5l4 4 5-4c3-4 7-5 11-5s8 2 11 5c7 6 7 16 0 22l-4 4 4 5c6 6 6 16 0 22s-16 6-22 0l-4-5-5 5c-6 6-16 6-22 0s-6-16 0-22l5-5-5-4c-7-6-7-16 0-22z" horiz-adv-x="1000" />

<glyph glyph-name="satellite-dish" unicode="&#xe812;" d="M957-62h-457c-8 0-15-7-15-15s7-14 15-14h457c7 0 14-7 14-15v-15h-942v15c0 8 7 15 15 15h394c8 0 15 6 15 14s-7 15-15 15h-62l-26 155 6 6c24 24 62 28 91 10 126-77 280-101 403-83 32 5 48 45 23 69l-256 256 93 129c13 19 11 44-5 60l-37 36c-16 16-41 18-59 5l-9-6c-6-5-8-14-3-20 5-7 14-9 20-4l9 6c7 5 16 4 22-1l36-37c6-6 7-15 2-22l-90-125-95 96 65 47c7 5 9 14 4 20-5 7-14 8-21 4l-69-50-128 128c-6 6-15 6-21 0-6-6-6-15 0-21 23-23 495-495 522-522 7-7 2-18-7-19-110-17-259 3-384 79-37 23-84 20-117-6l-6 31c-3 21-21 37-43 37h-59l13 13c34 33 40 85 16 126-72 122-95 270-82 382 1 9 12 14 19 7l84-84c5-5 15-5 20 0 6 6 6 15 0 21l-83 84c-24 24-66 9-69-25-6-50-16-227 86-400 17-30 12-67-12-91l-33-33h-8c-21 0-40-16-43-37l-36-221h-65c-24 0-44-20-44-44v-22c0-12 10-22 23-22h955c12 0 22 10 22 22v22c0 24-19 44-43 44z m-783 216c1 7 7 12 14 12h108c7 0 13-5 15-12l35-216h-208z m0 0m68-21c-26 0-48-21-48-48s22-47 48-47 48 21 48 47-21 48-48 48z m0-66c-10 0-18 8-18 18s8 19 18 19 19-8 19-19-9-18-19-18z m0 0m480 754c137 0 249-112 249-249 0-8 6-15 14-15s15 7 15 15c0 153-125 278-278 278-8 0-15-7-15-15s7-14 15-14z m0 0m0-59c105 0 190-85 190-190 0-8 7-15 15-15s14 7 14 15c0 121-98 219-219 219-8 0-15-6-15-14s7-15 15-15z m0 0m0-58c72 0 132-60 132-132 0-8 6-15 14-15s15 7 15 15c0 89-72 161-161 161-8 0-15-7-15-15s7-14 15-14z m0 0m0-59c40 0 73-33 73-73 0-8 7-15 15-15s14 7 14 15c0 56-46 102-102 102-8 0-15-6-15-14s7-15 15-15z m0 0" horiz-adv-x="1000" />

<glyph glyph-name="layers" unicode="&#xe813;" d="M1000 350c0 21-12 40-31 50l-74 37 74 37c0 0 0 0 0 0 19 10 31 29 31 50 0 21-12 40-31 49l-420 210c-31 16-67 16-98 0l-420-210c-19-9-31-28-31-49 0-21 12-40 31-50l74-37-74-37c-19-10-31-29-31-50s12-40 31-50l74-37-74-37c-19-9-31-28-31-50 0-21 12-40 31-49l420-210c15-8 32-12 49-12 17 0 34 4 49 12l420 210c19 9 31 28 31 49 0 22-12 41-31 50l-74 37 74 37c19 10 31 29 31 50z m-949 165c-4 3-5 7-5 9s1 6 5 8l421 210c9 5 18 7 28 7 10 0 20-2 29-7l420-210c4-2 5-6 5-8s-1-6-5-9l-420-210c-18-9-40-9-57 0l-421 210z m898-330c4-2 5-6 5-9 0-2-1-6-5-8l-420-210c-18-9-40-9-57 0l-421 210c-4 2-5 6-5 8 0 3 1 7 5 9l106 53 294-148c15-7 32-11 49-11 17 0 34 4 49 11l295 148 105-53z m0 157l-420-211c-18-9-40-9-57 0l-421 211c-4 2-5 6-5 8 0 2 1 6 5 9l106 52 294-147c15-8 32-12 49-12 17 0 34 4 49 12l295 147 105-52c4-3 5-7 5-9 0-2-1-6-5-8z" horiz-adv-x="1000" />

<glyph glyph-name="responsive" unicode="&#xe814;" d="M932 759h-773c-38 0-68-29-68-68v-227c0-14 9-23 23-23s22 9 22 23v227c0 14 10 23 23 23h773c14 0 23-9 23-23v-545c0-14-9-23-23-23h-546c-13 0-22-9-22-23s9-23 22-23h46v-68c0-14-9-23-23-23h-23c-13 0-22-9-22-22s9-23 22-23h319c13 0 22 9 22 23s-9 22-22 22h-23c-14 0-23 9-23 23v68h273c39 0 68 30 68 69v545c0 39-29 68-68 68z m-459-773c2 7 4 14 4 23v68h137v-68c0-9 2-16 4-23h-145z m413 273h-500c-13 0-22-9-22-23s9-22 22-22h500c14 0 23 9 23 22s-9 23-23 23z m-636 137h-182c-38 0-68-30-68-69v-318c0-39 30-68 68-68h182c39 0 68 29 68 68v318c0 39-29 69-68 69z m23-387c0-14-9-23-23-23h-182c-13 0-22 9-22 23v318c0 14 9 23 22 23h182c14 0 23-9 23-23v-318z" horiz-adv-x="1000" />

<glyph glyph-name="settings" unicode="&#xe815;" d="M642 130c-10 6-21 13-32 19 3 21 3 43 0 65 11 6 22 12 32 19 18 10 25 33 17 52 0 0 0 0 0 0l-23 55c-7 19-28 30-48 25-12-3-24-6-36-9-14 17-29 32-46 46 3 12 6 24 9 36 5 20-6 41-25 48l-55 23c-19 8-42 1-52-17-7-10-13-21-19-32-22 3-44 3-65 0-6 11-13 22-19 32-11 18-33 25-52 17l-56-23c-19-7-29-28-24-48 3-12 6-24 9-36-17-14-32-29-46-46-12 3-24 6-36 9-20 5-41-6-49-25l-23-55c-8-19 0-42 17-52 11-7 22-13 32-19-2-22-2-44 0-65-10-6-21-13-32-19-17-11-25-33-17-52l23-56c8-19 29-29 49-24 12 3 24 6 36 9 14-17 29-33 46-46-3-12-6-24-9-36-5-20 5-41 24-49l56-23c5-2 10-3 16-3 14 0 28 7 36 20 6 11 12 21 19 32 21-2 43-2 65 0 6-11 12-21 19-32 10-17 33-25 52-17l55 23c19 8 30 29 25 49-3 12-6 24-9 36 17 13 32 29 46 46 12-3 24-6 36-9 20-5 41 5 48 24l23 56c8 19 1 41-17 52z m-46-88c-11 3-23 6-35 9-16 4-33-2-44-15-11-15-25-29-41-41-13-10-19-28-14-44 3-12 6-23 9-34l-51-22c-6 11-12 21-18 31-9 15-25 23-42 21-19-2-38-2-58 0-16 2-33-6-41-21-6-10-12-21-18-31l-51 22c3 11 6 23 9 34 4 16-2 34-15 44-15 12-29 26-41 41-10 13-27 19-44 15-11-3-23-6-34-9l-22 51c11 6 21 12 31 18 15 8 23 25 21 41-2 20-2 39 0 58 2 17-6 33-21 42-10 6-20 12-31 18l22 51c11-3 23-6 34-9 17-5 34 1 44 14 12 16 26 30 41 41 13 11 19 28 15 44-3 12-6 24-9 35l51 21c6-10 12-20 18-31 8-14 25-23 41-20 20 2 39 2 58 0 17-3 33 6 42 20 6 11 12 21 18 31l51-21c-3-11-6-23-9-35-5-16 1-33 14-44 16-11 30-25 41-41 11-13 28-19 44-14 12 3 24 6 35 9l21-51c-10-6-20-12-31-18-14-9-23-25-20-42 2-19 2-38 0-58-3-16 6-33 20-41 11-6 21-12 31-18l-21-51z m-124 198c0 0 0 0 0 0-32 77-121 114-199 82-78-32-115-121-83-199 16-38 45-67 83-83 19-7 39-11 58-11s40 4 59 11c77 33 114 122 82 200z m-99-158c-27-11-56-11-83 0-27 11-47 31-58 58-23 55 3 118 58 141 14 5 27 8 41 8 42 0 83-25 100-66 23-55-4-119-58-141z m597 571c-8 1-16 2-24 3-4 14-9 27-16 39 5 6 10 13 15 19 10 14 8 34-4 46l-31 31c-12 12-32 14-46 4-6-5-13-10-19-15-12 7-25 12-39 16-1 8-2 16-3 24-3 17-18 30-35 30h-44c-17 0-32-13-35-30-1-8-2-16-3-24-14-4-27-9-39-16-6 5-13 10-19 15-14 10-34 8-46-4l-31-31c-12-12-14-32-4-46 5-6 10-13 15-19-7-12-12-25-16-39-8-1-16-2-24-3-17-3-30-18-30-35v-44c0-17 13-32 30-35 8-1 16-2 24-3 4-14 9-27 16-39-5-6-10-13-15-19-10-14-8-34 4-46l31-31c12-12 32-14 46-4 6 5 13 10 19 15 12-7 25-12 39-16 1-8 2-16 3-24 3-17 18-30 35-30h44c17 0 32 13 35 30 1 8 2 16 3 24 14 4 27 9 39 16 6-5 13-10 19-15 14-10 34-8 46 4l31 31c12 12 14 32 4 46-5 6-10 13-15 19 7 12 12 25 16 39 8 1 16 2 24 3 17 3 30 18 30 35v44c0 17-13 32-30 35z m-12-73c-7-1-15-2-22-3-14-2-26-12-29-25-4-14-9-26-16-38-7-13-6-28 3-39 4-6 8-12 13-17l-23-23c-5 5-11 9-17 13-11 9-26 10-39 3-12-7-24-12-38-16-13-3-23-15-25-29-1-7-2-15-3-22h-32c-1 7-2 15-3 22-2 14-12 26-25 29-14 4-26 9-38 16-13 7-28 6-39-3-6-4-12-8-17-13l-23 23c5 5 9 11 13 17 9 11 10 26 3 39-7 12-12 24-16 38-3 13-15 23-29 25-7 1-15 2-22 3v32c7 1 15 2 22 3 14 2 26 12 29 25 4 14 9 26 16 38 7 13 6 28-3 39-4 6-8 12-13 17l23 23c5-5 11-9 17-13 11-9 26-10 39-3 12 7 24 12 38 16 13 3 23 15 25 29 1 7 2 15 3 22h32c1-7 2-15 3-22 2-14 12-26 25-29 14-4 26-9 38-16 13-7 28-6 39 3 6 4 12 8 17 13l23-23c-5-5-9-11-13-17-9-11-10-26-3-39 7-12 12-24 16-38 3-13 15-23 29-25 7-1 15-2 22-3v-32z m-212 107c-50 0-91-41-91-91 0-50 41-91 91-91s91 41 91 91c0 50-41 91-91 91z m0-141c-28 0-50 22-50 50 0 28 22 50 50 50 28 0 50-22 50-50 0-28-22-50-50-50z" horiz-adv-x="1000" />

<glyph glyph-name="shopping-bag" unicode="&#xe816;" d="M900-17l-58 649c-1 13-12 22-25 22h-121c0 108-88 196-196 196s-196-88-196-196h-121c-13 0-24-9-25-22l-57-649c0-1 0-1 0-2 0-72 66-131 148-131h503c81 0 148 59 148 131 0 1 0 1 0 2z m-400 817c81 0 146-65 146-146h-292c0 81 66 146 146 146z m252-900h-503c-54 0-98 36-99 80l56 625h98v-87c0-14 11-25 25-25s25 11 25 25v87h292v-87c0-14 11-25 25-25s25 11 25 25v87h98l56-625c-1-44-45-80-98-80z" horiz-adv-x="1000" />

<glyph glyph-name="chat" unicode="&#xe817;" d="M727 751h-671c-31 0-56-25-56-56v-403c0-31 25-56 56-56h44v-150c0-10 6-18 14-22 3-1 6-2 9-2 7 0 13 3 17 7l167 167h33c13 0 24 10 24 23 0 13-11 24-24 24 0 0-44 0-45 0-5 0-11-3-15-7l-133-133c0 0 0 118 0 119-1 12-11 21-24 21h-67c-5 0-9 4-9 9v403c0 5 4 9 9 9h671c5 0 9-4 9-9v-155c0-13 11-23 24-23s23 10 23 23v155c0 31-25 56-56 56z m217-289h-470c-31 0-56-25-56-56v-274c0-32 25-57 56-57h294l119-119c5-5 11-7 17-7 3 0 6 1 9 2 9 4 15 12 15 22v102h16c31 0 56 25 56 57v274c0 31-25 56-56 56z m9-330c0-6-4-10-9-10h-40c-12 0-23-9-24-21 0-1 0-71 0-71l-85 85c0 0 0 1-1 1 0 0 0 0-1 1-4 3-9 5-15 5h-304c-5 0-9 4-9 10v274c0 5 4 9 9 9h470c5 0 9-4 9-9v-274z m-244 160c-13 0-24-10-24-23 0-13 11-24 24-24 13 0 24 11 24 24 0 13-11 23-24 23z m-103 303c0 0-429 0-429 0-13 0-23-11-23-24s10-23 23-23h429c13 0 24 10 24 23s-11 24-24 24z m-266-156h-163c-13 0-23-11-23-24 0-13 10-23 23-23h163c13 0 24 10 24 23s-11 24-24 24z m259-147c-13 0-23-10-23-23 0-13 10-24 23-24 13 0 24 11 24 24 0 13-11 23-24 23z m220 0c-13 0-24-10-24-23 0-13 11-24 24-24 13 0 23 11 23 24 0 13-10 23-23 23z" horiz-adv-x="1000" />

<glyph glyph-name="favorites" unicode="&#xe818;" d="M922 456c18 18 25 44 17 68-8 24-28 41-53 45l-219 31c-4 1-8 4-10 8l-98 198c-11 23-34 37-59 37-25 0-48-14-59-37l-98-198c-2-4-6-7-10-8l-219-31c-25-4-45-21-53-45-8-24-1-50 17-68l158-154c3-3 5-8 4-12l-37-218c-5-25 5-49 26-64 20-15 47-17 69-5l196 103c4 2 8 2 12 0l196-103c10-6 20-8 31-8 13 0 27 4 38 13 21 15 31 39 27 64l-38 218c-1 4 1 9 4 12l158 154z m-214-175l38-218c1-7-4-11-6-13-2-1-7-4-14-1l-195 103c-10 5-20 8-31 8-10 0-21-3-31-8l-195-103c-7-3-12 0-14 1-2 2-7 6-5 13l37 218c4 22-4 43-19 59l-158 154c-6 5-4 11-4 13 1 3 4 8 11 9l219 32c21 3 40 17 49 36l98 198c4 7 10 8 12 8 3 0 9-1 12-8v0l98-198c9-19 28-33 49-36l219-32c8-1 10-6 11-9 1-2 2-8-3-13l-159-154c-15-16-22-37-19-59z m100 525c-12 8-28 6-37-6l-28-39c-8-11-6-28 6-36 5-4 10-5 16-5 8 0 16 3 21 10l28 39c9 12 6 28-6 37z m-551-44l-28 38c-9 12-25 15-37 6-12-9-15-25-6-37l28-38c5-7 13-11 21-11 6 0 11 1 16 5 12 8 14 25 6 37z m-160-511c-5 14-20 21-33 17l-46-15c-14-5-21-19-17-33 4-11 14-18 25-18 3 0 6 0 9 1l45 15c14 4 21 19 17 33z m403-293c-15 0-26-12-26-27v-47c0-15 11-27 26-27 15 0 26 12 26 27v47c0 15-11 27-26 27z m482 295l-45 15c-14 4-29-3-34-17-4-14 3-29 17-34l46-14c2-1 5-2 8-2 11 0 21 8 25 19 4 14-3 28-17 33z" horiz-adv-x="1000" />

<glyph glyph-name="menu_sign" unicode="&#xe819;" d="M803 703c-82 70-187 112-303 112-118 0-226-44-308-117l0 0c-6-5-9-13-9-21 0-18 15-32 32-32 10 0 19 4 24 11 71 59 162 95 261 95 100 0 192-36 262-97 6-6 14-10 24-10 18 0 32 15 32 32 0 12-6 22-15 27z m8-692c4 6 7 13 7 20 0 18-15 32-32 32-9 0-17-3-23-9-71-61-162-98-263-98-99 0-190 36-261 97-6 6-14 11-24 11-18 0-32-15-32-32 0-8 3-14 7-20l0 0c82-75 191-120 310-120 116 0 221 43 303 113 2 1 4 3 6 5 1 0 1 0 2 1l0 0z" horiz-adv-x="1000" />

<glyph glyph-name="menu_sign_single" unicode="&#xe81a;" d="M957 285c-122 105-281 169-454 169-177 0-339-67-463-176l0 0c-8-8-13-20-13-32 0-27 22-48 48-48 14 0 28 6 36 16 107 90 243 144 392 144 150 0 288-55 393-146 9-9 21-15 36-15 27 0 48 22 48 48 0 17-9 32-23 40z" horiz-adv-x="998" />

<glyph glyph-name="offer" unicode="&#xe81b;" d="M929 290l51 38-48 44 44 48-55 33 34 56-61 22 23 61-64 11 11 63-65-1-2 64-63-14-13 64-59-26-26 60-53-37-37 54-45-46-46 46-37-54-53 37-25-60-60 26-13-64-64 14-2-64-65 1 11-63-64-11 23-61-61-22 34-56-55-33 44-48-48-44 52-38-40-52 59-28-29-58 63-17-17-63 65-4-5-65 64 8 8-64 61 20 20-62 57 31 30-57 50 41 41-50 42 50 50-41 30 57 57-31 20 62 61-20 8 64 64-8-5 65 65 4-17 63 62 17-28 58 58 28-37 52z m-429 56c-2 0-4 1-4 4 0 2 1 5 4 5s5-2 5-5c0-2-3-4-5-4z" horiz-adv-x="1000" />

<glyph glyph-name="quote_soft" unicode="&#xe81c;" d="M621 725c-54 58-121 83-200 83-42 0-79-8-113-20-37-17-70-38-95-63-25-25-46-58-63-92-12-37-21-75-21-116 0-67 21-121 59-167 37-46 87-83 141-112 25-13 42-30 54-55 13-25 17-50 13-83 0-29-8-62-17-96-8-33-21-62-33-92 0-4 4-8 17-12 8-4 12-8 16-8 17 12 42 33 79 66 38 34 75 80 117 134 38 54 71 116 100 191 29 75 38 150 33 234-4 83-33 150-87 208z m742-208c-5 83-34 150-88 208-54 58-121 83-200 83-42 0-79-8-112-20-38-17-67-34-92-63-25-25-46-58-63-92-16-37-25-75-25-116 0-67 21-121 59-167 37-46 87-83 141-112 30-17 46-34 59-59 12-25 16-50 12-83 0-29-8-63-16-96-9-33-21-63-34-92 0-4 4-8 17-12 4-4 8-9 17-9 16 13 41 34 79 67 37 33 75 79 116 134 38 54 71 116 100 191 25 79 38 154 30 238z" horiz-adv-x="1500" />

<glyph glyph-name="go_top" unicode="&#xe81d;" d="M842 548h-306l116 155c16-3 35 6 47 23 15 22 14 48-3 59-17 11-43 2-59-19-8-13-12-26-10-38l-134-180h-37l-101 120c4 12 1 28-9 43-15 21-41 30-58 19-17-11-19-37-4-59 11-15 28-24 43-24l84-99h-254c-73 0-133-57-133-126v-95-182-116c0-70 60-127 133-127h11 98 96 187 100 175 19c73 0 133 57 133 127v393c-1 69-61 126-134 126z m-80-464c0-50-43-92-96-92h-449c-53 0-96 41-96 92v283c0 50 43 91 96 91h449c53 0 96-41 96-91v-283z m108-74c-15 0-27 11-27 26 0 14 12 26 27 26 15 0 28-12 28-26 0-15-13-26-28-26z m0 155c-24 0-43 18-43 41 0 22 20 41 43 41 24 0 43-19 43-41 0-23-19-41-43-41z m0 147c-34 0-62 26-62 59 0 32 28 59 62 59 34 0 62-27 62-59 0-33-28-59-62-59z m-385-21c-116 64-117 60-117-69v0 0 0c0-129 0-132 117-68 59 32 87 52 87 68h0v0 0h0c0 16-29 37-87 69z" horiz-adv-x="1000" />
</font>
</defs>
</svg>
